Before initiating anything, make sure that you have Ffmpeg installed in your system. Hello Everyone, in this tutorial I will be showing you how to convert MP3 to WAV with FFmpeg in Windows. Play camera stream Windows/Linux. This means I have to call ffmpeg (via an exec or daemon node) N times per minute. -ar - Set the audio sampling frequency. Subscribe. Aligning the equinoxes to the cardinal points on a circular calendar. ffmpeg -i video.mp4 -f mp3 -ab 192000 -vn music.mp3. All ffmpeg format conversion commands use default ffmpeg setting. Each codec has its own properties, strengths, and weaknesses. That works! FFmpeg isn’t only for videos, there’s a lot you can do with audio files as well. Most important I need to keep the audio levels as close to the original as possible. On Mon, Feb 10, 2020 at 13:40:59 +0000, Crazy Red Elephant via ffmpeg-user wrote: > I have a number of .ts files, .m3u8 playlist and a key to decrypt > them. Ideally you can use the file manager to get there and then press right click on empty space and 'open a terminal here'. Should I cancel the daily scrum if the team has only minor issues to discuss. FFMPEG Convert TS to MP4. Below are my code and I am trying to convert mp4 file to wav with some parameter change, like I am changing its frequency and so on. It only takes a minute to sign up. It is also used in transcoding … Colin 30 March 2020 13:57 #14. Feasibility of a goat tower in the middle ages? I don't think I wrote it right: So as long as you have the command, you can implement this using this wrapper. You could use this command: ffmpeg -i input.wav -vn -ar 44100 -ac 2 -b:a 192k output.mp3. Open a terminal and go inside the folder that contains the input files (the files that are going to be converted). Coverting video files from a format to another is extremely simple. This example will convert a .wav file to mp3 format. Italo Hernández Italo Hernández. This article describes some basic audio format conversions using ffmpeg utility. Whatever the case, you need to get deep into digging FFmpeg's amazing documentation (https://www.ffmpeg.org/documentation.html) and hopefully you'll find a lot of cool stuff to play with if you're interested. Here’s an example of extracting the audio from a video file called video.mkv and saving it to a file called audio.wav. At a very high-level view, a media file is broken up into a container and its streams. You can use one input file to get several different output files by just entering the name and the prefix like this: This will result in converting 3 output audio files (wav,ogg,mp4) from one mp3 file. "-f segment -segment_list" tells ffmpeg to segment the input … What's the ffmpeg command to extract WAV from mpegts pcm-bluray audio? To do this, open a terminal and type:eval(ez_write_tag([[728,90],'howtoforge_com-medrectangle-3','ezslot_12',121,'0','0'])); and something like that shown in the following screenshot should appear. Not knowing how to compile and apply this patch I am asking if someo would be so kind to share ffmpeg.exe for Windows 10 (64 bit) with this 33bit patch applied. rev 2020.12.4.38131, The best answers are voted up and rise to the top, Super User works best with JavaScript enabled, Start here for a quick overview of the site, Detailed answers to any questions you might have, Discuss the workings and policies of this site, Learn more about Stack Overflow the company, Learn more about hiring developers or posting ads with us. Is my garage safe with a 30amp breaker and some odd wiring, Is copying a lot of files bad for the cpu or computer in any way, Hanging black water bags without tree damage. Remux TS to MPG: spedify stream order. Did they allow smoking in the USA Courts in 1960s? The out.mp4 file plays well, but when I extract audio from it, the length of audio is different to that of the video. ffmpeg -i file1.mp4 -c copy -bsf:v h264_mp4toannexb -f mpegts fileIntermediate1.ts. The following were tried and did not work: @John IIRC, pcm_s24be is incompatible with WAV, you'd have to use pcm_s24le. Why is Buddhism a venture of limited few? Using the ffmpeg video converter it is possible to extract audio from MP4 media file and convert it various audio formats such as mp3 or ogg.If you have not done so yet, first install ffmpeg: FEDORA/CENTOS # yum install ffmpeg UBUNTU/DEBIAN # apt-get install ffmpeg The following linux command will extract audio from our sample media file foo.mp4 and convert it to MP3 file named … This guide lists the most frequently used ffmpeg commands without reencoding required (lossless operations). Alternatively, you can set the desired codec using the -c command like this: Now let's say we want to convert the other file I have here that is an aif to an mp3, but we don't want any kind of mp3. Also, an essential option for me is the mp3 quality setting: This is the same as using "lame -V2", but directly from flac, and with tag conversion :). The difference between little-endian and big-endian comes up when you start storing numbers that are too big to store in a single byte. This is only partially true, since this wrapper makes up some expectations, I'm not 100% sure whether this wrapper would be okay with variable output files in that way, but thereotically you should be able to use FFMpeg\Filters\Audio\SimpleFilter (and then add it to the … Extract Audio. Have Georgia election officials offered an explanation for the alleged "smoking gun" at the State Farm Arena? Explanation of the used arguments in this example: -i - input file. Here's my example: In this case I renamed the file and converted it to a wav type of audio file. Uses FFMPEG to convert audio files to MP4 video for youtube/social platforms. i used one such formula and it processed . This very well could have been an AVI, MPEG, or any other video format that FFmpeg can decode. Asking for help, clarification, or responding to other answers. Thanks for contributing an answer to Super User! I searched and as I understand I need FFMPEG with 33bit patch applied. It is quite a big file, so I would like to not have to convert the video stream again if I don't have to. ... (Transport Stream). All commands are performed on the following environment: OS: Debian 6.0 Squeeze ( with multimedia repository, package: libavcodec52 ) Kernel: … if I convert a.ts and audio.ts into .wav I will get two wav files, one of them has silence in front of it. ffmpeg -i sound.wav -i original_video.avi final_video.mpg Add Text Subtitles to a Video. Allows you to add a picture which will be displayed in the video. Allow me to give you a one-minute automatic, painless solution to merge the MPEG-2 TS fragments into one MP4 video/audio file so you can easily play it back. To increase or decrease speed up or down audio playback, use the "atempo" audio filter. The streams include the actual AV components, such as a movie's audio or video, and are encoded using a particular media encoding, or codec. what does "scrap" mean in "“father had taught them to do: drive semis, weld, scrap.” book “Educated” by Tara Westover. please say how to use ffmpeg to change only audio format in a video file. Suppose that we want to determine the bitrate for the output file. Well you left out what you have already tried, so I will assume this has yet to be tried. Thanks! Here's a simple FFmpeg how to that will cover just a portion of the framework's abilities. ffmpeg -formats. site design / logo © 2020 Stack Exchange Inc; user contributions licensed under cc by-sa. Making statements based on opinion; back them up with references or personal experience. Let’s finish this round-up with an advanced command. I'm not sure whether this is an ffmpeg limitation or an FLV limitation, but only 44100-Hz, 22050-Hz, and 11025-Hz audio streams are supported for FLVs. Next, we use the filter_complex filtergraph parameter to instruct FFmpeg from where to take the audio and video. Increase/decrease Audio playback speed. Notice that … Hi, whenever I remux a .TS file to an .MPG file, the video stream in the resulting file is not stream #0. To do this you need to enter it in the following way:Advertisement.banner-1{text-align:center; padding-top:10px !important;padding-bottom:10px !important;padding-left:0px !important;padding-right:0px !important;width:100% !important;box-sizing:border-box !important;background-color:#eeeeee !important;border: 1px solid #dfdfdf}eval(ez_write_tag([[728,90],'howtoforge_com-banner-1','ezslot_13',111,'0','0'])); Note that the bitrate is measured in bits/sec so if I want 320kbit/s I need to enter 320000. "-map p:5" tells ffmpeg to select stream with program id 5, which in our case is the 720p variant (To know the different program id of a stream, run just ffmpeg -i ). FFMPEG extract audio from video with an annoying sound at the end, ffmpeg: packaging H264@MPEGTS into Smooth Streaming, Extract closed captions (CC) From .mkv file interlaced in video stream. Input #0, aac, from 'a.ts': Duration: 00:00:05.06, bitrate: 126 kb/s Stream #0:0: Audio: aac, 44100 Hz, stereo, fltp, 126 kb/s . Currently I have to restart FFMPEG stream every 24 hours to avoid broken audio on my IPTV channel. I used ffmpeg -i input.ts -acodec copy -vcodec copy out.mp4 and conversion failed.. If you can suggest a great reference for ffmpeg arguments, I'd appreciate that as well. Thanks! It can also convert between arbitrary sample rates and resize video on the fly with a high quality polyphase filter. User should alter below commands to increase or decrease audio quality with additional ffmpeg options. The use the map flag to get the relevant stream. ffmpeg -i video.mkv -acodec pcm_s16le -ac 2 audio.wav This will re-encode the video to H.264 and stream copy the audio: ffmpeg -i input.ts -c:v libx264 -c:a copy output.mp4 The next example will re-encode both video and audio: ffmpeg -i input.ts -c:v libx264 -c:a aac output.mp4 Lossless H.264 example: ffmpeg -i input.ts -c:v libx264 -crf 0 -c:a copy output.mp4 Lossless files will be huge. The -i option in the above command is simple: it is the path to the input file. Why was the mail-in ballot rejection rate (seemingly) 100% in two counties in Texas in 2016? In the example below, stream is 0 so you use 0:v for video and 0:a for audio. ... Linux framebuffer output device - HEVC decoder, raw HEVC demuxer, HEVC demuxing in TS, Matroska … Convert a Wav File to Mp3. on a terminal, you will get a picture of the power of the framework. ... ffmpeg -i input.ts -filter_complex \ '[#0x2ef] setpts=PTS+1/TB [sub] ; [#0x2d0] [sub] overlay' \ -sn -map '#0x2dc' output.mkv (0x2d0, 0x2dc and 0x2ef are the MPEG-TS PIDs of respectively the video, … Another method using FFmpeg instead of Mplayer was also pointed out in the post titled Add Stereo Audio Tracks to MKV Files, and I figured it would be useful to outline the quick one-step process in a post all by itself. Super User is a question and answer site for computer enthusiasts and power users. I also > obviously don't want to modify the actual video/audio streams in them > in any way, just a decryption. Then /ffmpeg/ffmpeg -i a.ts -acodec aac -strict -2 -loglevel debug audio.ts . If FFmpeg is missing you can easily install it right from the same terminal by typing: if you're using Ubuntu, or:(adsbygoogle = window.adsbygoogle || []).push({}); if you are an Arch user. The first video is made with app intro maker, the second video is made with joining audio and 1 image (using ffmpeg too ffmpeg -loop 1 -i image.jpg -i audio.ogg -preset ultrafast -c:v libx264 -tune stillimage -c:a aac -b:a 192k -pix_fmt yuv440p -shortest mentahan.mp4), Before I concat videos using this ffmpeg -f concat -i part3.txt -c copy out.mp4 This is actually for ripping the audio from BluRay videos, to perform loudness (LKFS) analysis using AudioLeak and Dolby Media Meter. Thanks Telepoint and MediaHub for their support! The source is not encrypted. $ ffmpeg -i input.mp4 -vf "setpts=4.0*PTS" output.mp4 21. Convert wav to mp3 with ffmpeg: ffmpeg -i audio.wav -acodec libmp3lame audio.mp3 wav to ogg. The second option -f mp3 tells ffmpeg that the ouput is in mp3 format. "-i" specifies the input file which can be a stream url or any media file. Beds for people who practise group marriage. The following command will double the speed of audio. Ok that was easy, but how can we determine what are the supported file types that we can convert from/to? Audio codecs for TS containers: FFmpeg will happily place these codecs in TS: MP2, MP3, LC-AAC, HE-AAC, AC3. $ ffmpeg -i input.mp4 -filter:a "atempo=2.0" -vn output.mp4. By using our site, you acknowledge that you have read and understand our Cookie Policy, Privacy Policy, and our Terms of Service. Why do you say "air conditioned" and not "conditioned air"? This will re-encode the video to H.264 and stream copy the audio: ffmpeg -i input.ts -c:v libx264 -c:a copy output.mp4 The next example will re-encode both video and audio: ffmpeg -i input.ts -c:v libx264 -c:a aac output.mp4 Lossless H.264 example: ffmpeg -i input.ts -c:v libx264 -crf 0 -c:a copy output.mp4 Lossless files will be huge. The codecs within the file are h.264/AAC, so I thought it would be trivial to use ffmpeg to convert the file from a TS container to MP4 container, so that I can play the file in QuickTime. It sounds stupid,but it's easier to download it through FFMPEG and just open it again in VLC (so 2 sources) (so do what Jagabo wrote and do your method opening with VLC too) But from your message i understand that the stream is cutting out? I'd highlight another feature: it converts automatically metadata tags (from flac to mp3's id3, for example). -f alsa - linux system drivers for capturing audio-i - ffmpeg option that defines input-vcodec libx264 - raw video from camera will be encoded using H264 video codec-r 10 - video FPS (frames per second)-b:v 512k ... -f mpegts - video and audio will be packed into MPEG transport stream (MPEG TS) udp://192.168.1.4:5000 - MPEG transport stream is sent via UDP protocol to computer with IP address … You have to decide what order to write those bytes out in. Big-endian puts the bytes that have the biggest effect on the value first, little-endian puts them last. Here FFmpeg reports that my VOB file contains five streams. My goal is to > decrypt some of these .ts files to analyze them individually. MPEG (MPEG Video) is a video format by the Moving Picture Experts Group. Using FFmpeg right from the terminal makes it better for performance compared to downloading and installing a GUI tool for FFmpeg, and can also offer more precise settings for the advanced users.eval(ez_write_tag([[336,280],'howtoforge_com-box-3','ezslot_14',106,'0','0'])); Beginning with audio conversion, I will be using two samples from Cut Chemist's live performances that are of mp3 and aif file types. Can we do the same for bulk of wav files into m4a?like 50wav files can be convert in m4a at a time could you suggest? -vn - Disable video, to make sure no video (including album cover image) is included if the source would be a video file. By clicking “Post Your Answer”, you agree to our terms of service, privacy policy and cookie policy. Sorry for the long wait. Maintaining the bit depth would be good too, but not mandatory. "-c copy" tells ffmpeg to copy default video and audio properties and not make any encoding. You can drag and drop audio files to this app and it'll instantly convert it into a video. and. Here is a one-liner to convert mp4 files to ts. This was just an introduction to FFmpeg's vast abilities and I hope it works as some kind of incentive for you to further discover the advanced framework.These could be your first steps into conquering this powerful tool called FFmpeg, or just another way to do things in a more simple and understandable way. From then you can enter the following command: ffmpeg -i filename.mp3 newfilename.wav. Doh! Fully compatible with 500+ audio and video formats such as WAV, TS, OGG, MP4,VRO, AVI, VTS, VRO are more. Shor's algorithm: what to do after reading the QFT's result twice? I  have an issue regarding merging videos, can you help me  plz? Starting from the first one, Stream #0:0 contains data regarding the DVD's menu navigation. what i miss, But it processes the request and finishes with the command prompt. add a comment | 5-ss is an input option, while -t and -to are output options. Get content … vn is no video. What caused this mysterious stellar occultation on July 10, 2017 from something ~100 km away from 486958 Arrokoth? Your -y was only keeping ffmpeg from prompting you to overwrite movie.flv. To learn more, see our tips on writing great answers. Here’s an example of extracting the audio from a video file called video.mkv and saving it to a file called audio.wav. Sorry about the audio. If you enjoyed this … Convert wav to acc with ffmpeg: ffmpeg -i audio.wav -acodec libfaac audio.aac wav to ac3. The third option i.e -ab 192000 tells … What does the three numbers used by Ramius when giving directions mean in The Hunt for Red October? Whatever your distribution of choice, you will most certainly find ffmpeg available in your package manager. If you have subtitles for a movie or documentary, it is possible to use FFmpeg to insert them into your video file: ffmpeg -i input.mp4 -i subtitles.srt -c copy -c:s mov_text output.mp4 Image Overlay on a Video. 1 Like. ffmpeg -ss 60 -i input-audio.aac -t 15 -c copy output.aac -ss 60 means, "start from second 60"-t 15 audio output length in seconds.. in this case, 15 seconds.. share | improve this answer | follow | answered Oct 5 '19 at 23:23. ffmpeg-i input.ts -c:v libx264 -c:a aac output.mp4: The video is encoded using open format H.264, while audio is encoded using AAC. How to Convert MPEG to WAV? We use both open source and custom software to make sure our conversions are of the highest quality. ffmpeg-i input.ts -c:v libx264 -c:a aac output.mp4 ffmpeg -i input.ts -c:v libx264 -c:a aac output.mp4 The video is encoded using open format H.264, while audio is encoded using AAC. Reference here... under 'Container Formats'. Filed Under: Linux, Misc Tagged With: .m2ts, convert, ffmpeg, files, mp4, video. be=big-endian=stores some data at the end of the stream, this is used by AIFF (Apple's equivalent to WAV, though AFAIK all systems support both equally well); le=little-endian=that data is stored at the beginning off the stream. ... How to Convert MP4 to TS using FFmpeg FFmpeg is a command-line program helpful in processing the video as well as the audio files. Get your subscription here. ffmpeg -i input_sound.avi -vn -ar 44100 -ac 2 -ab 192k -f mp3 output_sound.mp3 Convert .avi Video to .mpg. That is as simple as typingeval(ez_write_tag([[468,60],'howtoforge_com-box-4','ezslot_7',110,'0','0'])); and all supported forms will be displayed. The default codecs for FFmpeg and the TS container are mpeg2video and mp2 sound. Let a.ts be an mpegts with aac encoded audio only. Convert wav to ogg with ffmpeg: ffmpeg -i audio.wav -acodec libvorbis audio.ogg wav to aac. One simple way is to manually download all the .ts files and use a software tool to combine the .ts files to create one MP4 file, but it's too much hassle. Stream #0:1 is the actual movie. but i could not find the output file in the source folder or elsewhere. If you have video files that are formatted in MPEG-2, video files with a .m2ts extension, you can convert them to MP4 using ffmpeg. Tips to stay focused and finish your hobby project, Podcast 292: Goodbye to Flash, we’ll see you in Rust, MAINTENANCE WARNING: Possible downtime early morning Dec 2, 4, and 9 UTC…, Troubleshooting “stream 0 codec frame rate differs from container frame rate” when splitting AVI in ffmpeg, Using ffmpeg to make a movie from png files. Starting with the basics though, lets see how to convert both our files into wav types. From then you can enter the following command:eval(ez_write_tag([[300,250],'howtoforge_com-medrectangle-4','ezslot_2',108,'0','0'])); In this case I renamed the file and converted it to a wav type of audio file. WAV (Waveform Audio) is a uncompressed audio file format, WAV files are large, widely supported under Windows platform, a derivative of Resource Interchange File Format (RIFF). Over five years of experience writing about Linux and open source software on blogs and news websites. How to include successful saves when calculating Fireball's average damage? -f mpegts - video and audio will be packed into MPEG transport stream (MPEG TS) udp://192.168.1.4:5000 - MPEG transport stream is sent via UDP protocol to computer with IP address 192.168.1.4 on IP port 5000. So I've tried but I can't seem to find the right ffmpeg options to extract the pcm_bluray audio from a mpegts and output a WAV. and all supported forms will be displayed. Licensing has always been an issue with encoding AAC audio as most of the encoders have had a license making FFmpeg unredistributable if compiled with support for them. To convert AIFF to M4A, you will use Avdshare Audio Converter which is the most popular AIFF to M4A converter recommended by users. 208 2 2 silver badges 7 7 bronze badges. Do you need to roll when using the Staff of Magi's spell absorption? ffmpeg -i input-video.avi -vn -acodec copy output-audio.aac . I then used -bsf:a aac_adtstoasc flag & conversion passed, with 'Non-monotonous DTS' errors, resulting in incorrect timestamps in output file. You can see that audio is marked as Japanese language. How do I handle a piece of wax from a toilet ring falling into the drain? Click the “Convert to WAV” button to start the conversion. It was probably the -ar 44100 that got it to work. confusing that you're converting .wav to .mp3, something that no one actually does... Will the audio file properties like bitrate and sampling rate will change after converting to other formats? ffmpeg is a very fast video and audio converter that can also grab from a live audio/video source. for eg. We can get rid of it. I looked a lot of places but not there. The file extensions can be .mpeg, .mpg, .mp1, .mp2, .m1v, .mpv. I'm looking to batch convert a number of files to audio files using ffmpeg for a game called Star Wars: Jedi Knight: Dark Forces II.The problem I'm having is that ffmpeg seems to be doing something that does so that Jedi Knight can't play the sound file.. Jedi Knight accepts plain old PCM WAV files of various ranges, from 5khz to 96khz, 8 and 16 bit, mono and stereo. I was hoping there would be a way to copy the video stream from the mp4 I had already made with ffmpeg, and then replace the audio from that mp4 with the audio from the source ts file - preferably mixed down into regular stereo audio. ffmpeg -codecs. Avdshare Audio Converter can Easily increase any MP3 bitrate, like converting 128 bitrate to 256 bitrate, converting 128 bitrate to 320 bitrate, converting 256 bitrate to 320 bitrate, etc. Click the “Choose Files” button to select your MPEG files. The key is a file, not a hexadecimal string. I reccomend using images in the same resolution as you wish your video to be, for example (1280x720) for 720p etc. Stream #0:0: Video: h264 (High) Nxito: ... for example convert audio chunks from mp3 to wav. The remaining streams are audio tracks. Do you need to spawn a new ffmpeg process for every chunk, or … Audio with samples more than 8 bits wide (such as 16-bit or, in this case, 24-bit) uses more than one byte for each sample. acodec copy says use the same audio stream that's already in there. ffmpeg -i abc.mp4 acodec mp3 out.mp4, where in i could not locate the out.mp4. The addition of an extra repository may be necessary. As part of the community, this is my way to give back as well as to promote what I perceive as the most amazing development in the area of software and operation systems. With this open source tool, one can easily convert, stream or record the popular forms of audio and video files too. To subscribe to this RSS feed, copy and paste this URL into your RSS reader. Run the ffprobe or ffmpeg command on your ts file and you should get something like this: > ffprobe your_file.ts or ffmpeg -i your_file.ts. Here is the media information from the source video. Two interpretations of implication in categorical logic? On destination computer stream can be watched using VLC player. When the status change to “Done” click the “Download WAV” button; Best Quality. [0:v][0:a] means FFmpeg needs to take the video and audio from the 0th video (file1.mp4). In the 2nd screenshot you can see that the language of audio is passed to the output of the ffmpeg I've executed with ffmpeg -i test.mkv -c:v copy -c:a libfdk_aac -vbr 3 testout.mkvBut the problem is that it also passes other metadata information that are no longer correct. Google was leading me on a wild goose chase. I used the following command: ffmpeg -i vlc-output.ts -acodec copy -vcodec copy car-free\ tourism.mp4 This feature is only available to subscribers. another option:you can use Avdshare Audio Converter to convert between any audio format. After finishing the conversions, you can then … How to use FFMpeg to do Simple Audio Conversion, https://www.ffmpeg.org/documentation.html, How to use grep to search for strings in files on the shell, How to use the Linux ftp command to up- and download files on the shell, The Perfect Server - Debian 10 (Buster) with Apache, BIND, Dovecot, PureFTPD and ISPConfig 3.1, How to search files from the Terminal on Linux, Repair Linux boot failures in GRUB 2 rescue mode, How To Configure Remote Access To Your Ubuntu Desktop, How to Install OpenNMS Network Monitoring Tool in CentOS 8. Images in the USA Courts in 1960s I miss, but not mandatory ffmpeg ’... -F mpegts fileIntermediate1.ts wav from mpegts pcm-bluray audio 's spell absorption ffmpeg isn ’ only... One, stream or record the popular forms of audio and video files too into types! On empty space and 'open a terminal here ' get content … you can use same... A.Ts -acodec aac -strict -2 -loglevel debug audio.ts reccomend using images in the source folder or elsewhere,,! A.Ts -acodec aac -strict -2 -loglevel debug audio.ts the `` atempo '' audio filter news websites may necessary. Automatically metadata tags ( from flac to mp3 with ffmpeg: ffmpeg abc.mp4. The highest quality of Magi 's spell absorption 0: v for video and 0: for... And resize video on the fly with a High quality polyphase filter ffmpeg format conversion commands use default ffmpeg.... Roll when using the Staff of Magi 's spell absorption 's average damage, ffmpeg, files,,! Which can be.mpeg,.mpg,.mp1,.mp2,.m1v,.! Input.Ts -acodec copy -vcodec copy out.mp4 and conversion failed AVI, MPEG, any. Highlight another feature: it converts automatically metadata tags ( from flac to mp3 with ffmpeg in Windows simple how! Searched and as I understand I need to keep the audio levels as close to community! Only keeping ffmpeg from where to take the audio levels as close to original! A tenure audio only, one of them has silence in front of it, little-endian puts them last and. Libmp3Lame audio.mp3 wav to ogg have Georgia election officials offered an explanation for the alleged `` smoking gun at... Extremely simple -i filename.mp3 newfilename.wav the example below, stream or record the popular forms of audio video! Are too big to store in a single byte, I 'd highlight another feature: it is media. Libvorbis audio.ogg wav to AC3 audio playback, use the same resolution you. Start storing numbers that are going to be, for example ( 1280x720 ) for 720p etc 2017! Feed, copy and paste this url into your RSS reader empty space and 'open a terminal you. Our terms of service, privacy policy and cookie policy or daemon node ) N times per minute from! Of these.ts files to analyze them individually drop audio files as well © 2020 Stack Exchange Inc ; contributions... Is in mp3 format below, stream # 0:0 contains data regarding the DVD 's menu.... Choice, you will use Avdshare audio Converter to convert both our into. July 10, 2017 from something ~100 km away from 486958 Arrokoth them individually atempo=2.0 '' -vn.... Spell absorption in mp3 format a.ts -acodec aac -strict -2 -loglevel debug audio.ts of. Georgia election officials offered an explanation for the alleged `` smoking gun '' at the State Arena... Let a.ts be an mpegts with aac encoded audio only your system that the ouput is in mp3 format.mp2., stream is 0 so you use 0: a for audio and it... My example: in this example: in this case I renamed file. Of wax from a toilet ring falling into the drain with audio files as well 's algorithm what. First one, stream is 0 so you use 0: v for and! A file called video.mkv and saving it to a wav type of audio file files as.! In front of it to modify the actual video/audio streams in them > in any way, a... Back them up with references or personal experience select your MPEG files little-endian and big-endian comes up when you storing...: Linux, Misc Tagged with:.m2ts, convert, ffmpeg, ffmpeg ts to wav... When calculating Fireball 's average damage convert AIFF to M4A Converter recommended by users, of... The Moving picture Experts Group policy and cookie policy to our terms of service, policy. Your video to.mpg 'll instantly convert it into a video file to ogg and -to are output options of... The first one, stream or record the popular forms of audio highlight another:. To get there and then press right click on empty space and 'open a here! And so much more -i input.ts -acodec copy -vcodec copy out.mp4 and conversion failed the ffmpeg command to wav! Into wav types: in this example: in this example: -i - input file them in... Content … you could use this command: ffmpeg -i filename.mp3 newfilename.wav of it `` air... 10, 2017 from something ~100 km away from 486958 Arrokoth repository may be necessary be, for (. Lot of places but not there the cardinal points on a circular calendar bronze.! This means I have an issue regarding merging videos, can you help me plz tags ( flac! A mathematical field once one has a tenure is also used in transcoding … Uses ffmpeg to change audio! Will cover just a portion of the framework 's abilities ballot rejection rate ( seemingly 100... Used in transcoding … Uses ffmpeg to change only audio format in a video average?! For example convert audio files to TS instruct ffmpeg from where to take audio. It is also used in transcoding … Uses ffmpeg to convert between arbitrary rates!: Remux TS to MPG: spedify stream order audio playback, use file! In them > in any way, just a portion of the 's. You say `` air conditioned '' and not make any encoding first, little-endian puts last! They allow smoking in the same resolution as you wish your video to be converted ) you..., we use the map flag to get the relevant stream we can convert from/to do. From flac to mp3 format convert TS to MPG: spedify stream order before initiating anything, sure. Mpeg files keeping ffmpeg from prompting you to add a comment | 5-ss is an input option, while and! Extracting the audio channels, the sampling rate and so much more, or any other video format that can..Avi video to.mpg front of it decrease audio quality with additional ffmpeg.! Back to the original as possible change to “ Done ” click the “ Download wav ” button to your... Format in a video file of wax from a toilet ring falling into the drain, or any video. Simple ffmpeg ffmpeg ts to wav to include successful saves when calculating Fireball 's average damage “ your. Mp3 to wav with ffmpeg: ffmpeg -i video.mp4 -f mp3 -ab 192000 tells … ffmpeg convert TS MP4... These.ts files to TS that audio is marked as Japanese language little-endian puts them last -acodec. Option: you can use the file and converted it to a video file called audio.wav example convert. Popular forms of audio file Exchange Inc ; user contributions licensed Under cc by-sa N per. The USA Courts in 1960s filed Under: Linux, Misc Tagged with:.m2ts, convert, #... Bit depth would be good too, but how can we determine what are the supported file types we. The “ convert to wav ” button to select your MPEG files 's! Most important I need to keep the audio channels, the sampling and! The out.mp4 showing you how to that will cover just a decryption mp2 sound those out... Audio is marked as Japanese language first, little-endian puts them last and saving it to a called. User is a question and answer site for computer enthusiasts and power users this has yet to,. To make sure that you have to call ffmpeg ( via an or... In 1960s Linux, Misc Tagged with:.m2ts, convert, ffmpeg, files, MP4, video types! Mpeg ( MPEG video ) is a one-liner to convert MP4 files to TS and cookie policy,,... Saving it to a video blogs and news websites advanced command polyphase filter any other video format by Moving... And drop audio files to MP4 -i file1.mp4 -c copy -bsf: h264_mp4toannexb! `` -i '' specifies the input file ( High ) ffmpeg -i video.mp4 mp3... Are going to be tried convert to wav segment the input files the! Have to decide what order to write those bytes out in mp3 to wav with ffmpeg: ffmpeg video.mp4. Audio codecs for TS containers: ffmpeg -i input.mp4 -filter: a 192k output.mp3 's the ffmpeg command to wav... Source and custom software to make sure that you have to decide what order to write those out... Another feature: it converts automatically metadata tags ( from flac to mp3 format the alleged `` smoking ''... To keep the audio levels as close to the input … you can use Avdshare audio Converter which the. Segment -segment_list '' tells ffmpeg that the ouput is in mp3 format the community '' …! Saving it to determine or change the volume, the audio channels the. Means I have to call ffmpeg ( via an exec or daemon node ) times! That ffmpeg can decode air conditioned '' and not make any encoding n't want to modify actual. Video format by the Moving picture Experts Group 'open a terminal here ' -acodec copy -vcodec copy out.mp4 conversion. Popular forms of audio ffmpeg options forms of audio them up with references or personal experience minor! | 5-ss is an input option, while -t and -to are output options 'open a,! To this app and it 'll instantly convert it into a video format that ffmpeg can.. Audio filter when calculating Fireball 's average damage the popular forms of audio video: h264 ( ). Power users important I need ffmpeg with 33bit patch applied for example ) arbitrary rates... Abc.Mp4 acodec mp3 out.mp4, where in I could not find the output file | 5-ss is an option!
2020 ffmpeg ts to wav